#TITLE:Megaman StarForce Theme;
#SUBTITLE:;
#ARTIST:Unknown artist;
#TITLETRANSLIT:;
#SUBTITLETRANSLIT:;
#ARTISTTRANSLIT:;
#CREDIT:;
#BANNER:;
#BACKGROUND:;
#LYRICSPATH:;
#CDTITLE:;
#MUSIC:Megaman StarForce Theme.mp3;
#OFFSET:0.000;
#SAMPLESTART:30.000;
#SAMPLELENGTH:12.000;
#SELECTABLE:YES;
#BPMS:0.000=60.000;
#STOPS:;
#BGCHANGES:;
// cache tags:
#FIRSTBEAT:1.000;
#LASTBEAT:60.000;
#SONGFILENAME:Songs/nhac/Megaman StarForce Theme/Megaman StarForce Theme.sm;
#HASMUSIC:1;
#HASBANNER:0;
#MUSICLENGTH:59.928;
// end cache tags

//---------------dance-single - ----------------
#NOTES:
     dance-single:
     :
     Hard:
     1:
     0.405,0.325,0.000,0.350,0.859,149.000,0.000,21.000,0.000,0.000:
0000
0000
0000
0000
0000
0000
1000
0000
1000
0000
0000
0000
0100
0000
0010
0001
0002
0000
0000
0003
1000
0000
0000
0100
,
0000
0010
0001
0000
0000
0100
0100
0000
0100
0000
0010
0000
0001
1000
0000
0100
0100
0000
0010
0002
0000
0000
0003
1000
,
0000
0000
0100
0000
0010
0000
0001
0100
0000
1000
0000
0010
0010
0000
0010
0001
0100
0000
1000
0100
0000
0100
0000
0010
,
0000
0001
0020
0000
0000
0000
0000
0000
0000
0030
1000
0000
0100
0000
0010
0000
0001
0000
0000
1000
0000
0100
0100
0010
,
0000
0000
0001
0100
0000
0000
0010
0000
0010
1000
0000
0100
0000
0000
0001
0000
0010
0200
0000
0300
1000
0000
0100
0001
,
0000
0000
0020
0000
0000
0000
0000
0000
0000
0000
0030
1000
0000
0000
0001
0100
0000
1000
0010
0000
0100
0100
0100
2000
,
0000
0000
0000
0000
0000
0000
0000
0000
0000
0000
3000
0010
0001
0000
0200
0000
0000
0000
0000
0000
0000
0000
0000
0000
,
0300
0000
0001
0000
0010
0010
0000
1000
0100
0000
0100
0100
0001
0000
0010
0000
1000
0000
0100
0000
0000
0000
0000
0001
,
0000
0100
0000
0100
0100
1000
0000
0010
0000
0002
0000
0000
0000
0000
0003
0010
0000
1000
0000
0100
0000
0020
0000
0000
,
0030
0001
0000
0100
1000
0000
0100
0000
0000
0010
0001
0100
0000
0010
0000
0000
0002
0000
0000
0003
1000
0000
0100
0020
,
0000
0000
0000
0000
0000
0031
0000
0100
0000
1000
0000
0020
0000
0030
0100
1000
0000
0100
0002
0000
0000
0000
0000
0000
,
0000
0000
0003
0010
1000
0000
0100
0100
0000
0000
0001
0000
0010
0000
0200
0000
0000
0000
0000
0300
0001
0010
0000
1000
,
0000
0000
0200
0000
0000
0301
0000
0010
0000
0100
0000
1000
0000
0010
0000
0010
0010
0000
1000
0000
0200
0000
0000
0300
,
0001
0000
0010
0000
2000
0000
0000
0000
3000
0000
0100
0000
0010
0002
0000
0000
0013
0000
1000
0000
1000
0000
0100
0100
,
0020
0000
0000
0000
0000
0000
0030
0001
0020
0000
0000
1030
0000
0000
1000
0200
0000
0000
0000
0000
0000
0000
0000
0000
,
0300
0000
0000
0000
;

//---------------dance-single - ----------------
#NOTES:
     dance-single:
     :
     Medium:
     1:
     0.362,0.300,0.667,0.284,0.000,92.000,40.000,17.000,0.000,4.000:
0000
0000
1002
0000
0000
1003
0020
0000
,
1030
0110
0001
0110
0001
1000
0101
0020
,
1000
0101
0031
0100
1011
0110
0010
0001
,
1100
0010
0000
1000
0110
0001
0100
0010
,
1001
0100
0110
0001
1100
0010
0001
1010
,
0020
0000
0000
0030
1100
0011
0100
0011
,
0020
0000
0000
0030
1101
0002
0000
0000
,
0003
1010
0101
1010
0000
1100
0001
0000
,
1010
0101
0110
2000
3000
0001
0110
0020
,
0000
0031
1000
0110
0001
0110
0001
1000
,
2000
3000
0110
0001
0101
1010
0020
0000
,
0030
1001
0110
0001
0100
0020
0031
1000
,
0120
0030
0101
0000
0010
1011
0100
0200
,
0301
0210
0000
1300
0011
0100
0001
0110
,
0200
0000
0301
1000
0110
2002
0000
0000
,
3003
0000
0000
0000
;

//---------------dance-single - ----------------
#NOTES:
     dance-single:
     :
     Easy:
     1:
     0.162,0.163,0.083,0.300,0.000,45.000,5.000,18.000,0.000,2.000:
0000
1000
0000
0010
,
0001
0000
0000
0010
,
0100
2001
3100
0010
,
0201
0000
0310
0100
,
1000
0010
0001
0200
,
0002
0000
1003
0110
,
2000
0000
3002
0000
,
0003
0010
0100
0020
,
0030
0001
1000
0100
,
0010
0001
0100
0020
,
0001
0010
0200
0320
,
0030
0100
2001
3100
,
0020
0230
0302
2013
,
3000
0200
0001
0010
,
2000
3100
0210
0000
,
0300
0000
0000
0000
;

//---------------dance-single - ----------------
#NOTES:
     dance-single:
     :
     Challenge:
     1:
     0.465,0.388,0.133,0.334,1.000,167.000,8.000,20.000,0.000,1.000:
0000
0000
0000
0000
0000
0000
0000
0000
0000
0000
0000
0000
0000
1000
0000
0000
1000
1000
0000
0000
0000
0100
0000
0100
0000
0000
0000
0010
0000
0000
0001
0000
0010
0000
0000
0000
0000
0000
0000
0000
0010
0000
0010
0000
0000
0000
1000
0000
,
0000
1000
0000
0100
0000
0000
0010
0000
0000
0001
1000
0000
0000
0100
0000
0100
0000
0000
0010
0000
0000
0010
0000
0010
0000
0000
0000
1000
0000
1000
0000
0000
0000
0100
0100
0000
0000
0000
0000
0011
0000
0000
0000
0000
0011
0000
0011
0000
,
0000
0000
0000
1000
0000
0000
0000
0100
0000
0000
0000
0010
0000
0010
0000
0010
0000
0000
0001
0000
0000
0000
1000
0000
1000
0000
0000
1000
0000
0100
0000
0100
0000
0000
0010
0000
0000
0010
0000
0000
0000
0001
0010
0000
0000
0000
0000
1000
,
0000
0000
0000
0100
0000
0000
0010
0000
0000
0000
0000
0010
0000
0000
0000
0000
0010
0000
0000
0000
1000
0000
0000
0000
0000
0100
0000
0100
0000
0000
0000
0001
0000
0000
0010
0000
0000
0000
1000
0000
0000
0000
1000
0000
1000
0000
0000
0100
,
0000
0000
0000
0010
0000
0010
0100
0000
1000
0010
0000
1000
0010
1000
0000
0000
1000
0000
0100
0000
0000
0000
0000
0001
0000
0000
0000
0000
0011
0000
0000
0100
0000
0000
2200
0000
0000
0000
0000
3300
0000
0000
1000
0000
1000
0000
0020
0000
,
0000
0000
0000
0000
0000
0000
0000
0000
0000
0000
0000
0000
0000
0000
0000
0000
0000
0000
0000
0000
0000
0030
0001
0000
0000
0000
0000
1000
0000
1000
0000
0000
0000
0100
0000
0000
0100
0000
0100
0000
0000
0010
0000
0010
0000
0020
0000
0000
,
0000
0000
0000
0000
0000
0000
0000
0000
0000
0000
0000
0000
0000
0000
0000
0000
0000
0000
0000
0000
0000
0030
1000
0000
0100
0000
0000
0020
0000
0000
0000
0000
0000
0000
0000
0000
0000
0000
0000
0000
0000
0000
0000
0000
0000
0000
0000
0000
,
0000
0000
0030
0001
0000
0000
0000
0000
1000
0000
1000
0000
0000
0000
0000
0100
0000
0010
0000
0000
0010
0000
0010
0000
0000
0000
1000
0000
0000
0100
0000
0000
0000
0001
0000
0000
0000
0010
0000
0000
0000
0000
0000
0000
0000
0000
0100
0000
,
0000
0000
0000
1000
0000
1000
0000
0010
0000
0000
0010
0000
0000
0000
0001
0000
0000
0020
0000
0000
0000
0000
0000
0000
0000
0000
0000
0000
0000
0030
1000
0000
0000
0000
1000
0000
0000
1000
0000
0000
0000
0100
0000
0000
0000
0000
0000
0000
,
0000
0010
0000
0000
0000
0010
0000
0000
0000
1000
0000
0000
0000
1000
0000
0000
0000
0010
0000
0000
0010
0000
0010
0000
0000
0000
0000
1010
0000
0000
0000
2000
0000
0000
0000
0000
0000
0000
0000
3000
0010
0000
0000
0000
0001
0000
0000
0200
,
0000
0000
0000
0000
0000
0000
0000
0000
0000
0000
0300
0001
0000
0000
0000
0010
0000
0000
1000
0000
0000
0000
0200
0000
0000
0000
1300
0000
0000
0000
0010
0000
0000
0000
0001
0000
0000
0020
0000
0000
0000
0000
0000
0000
0000
0000
0000
0000
,
0000
0000
0000
0000
0000
0030
1000
0000
0100
0000
0000
0000
0010
0000
0010
0000
0000
0000
0000
0000
1000
0000
0000
0000
0100
0000
0000
0020
0000
0000
0000
0000
0000
0000
0000
0000
0000
0000
0000
0030
1000
0000
0000
0100
0000
0000
0000
0010
,
0000
0000
0000
0022
0000
0000
0000
0000
0000
0000
0000
1033
0000
0000
0000
0000
0000
0000
0000
0100
0000
0000
0000
0010
0000
0000
0000
0010
0000
0000
1000
0000
1000
0000
0000
0000
0000
0100
0000
0000
0020
0002
0000
0000
0000
0000
0000
0000
,
0033
1000
0000
0000
0000
0100
0000
0000
0020
0000
0000
0000
0000
0000
0000
0000
0000
0000
0000
0030
0000
0100
0000
0000
1000
0000
0000
0010
0000
0000
0000
1000
2100
0000
0000
3000
0000
1000
0000
0000
0010
0000
0000
0000
1000
0000
1000
0000
,
2000
0000
0000
0000
0000
0000
0000
0000
0000
0000
0000
0000
0000
3000
0100
0000
0000
0010
0000
0000
0000
0000
0010
0000
0000
0000
1000
0000
0000
0020
2000
0000
0000
0000
0000
0000
0000
0000
0000
0000
0000
0000
0000
0000
0000
0000
0000
0000
,
3030
0000
0000
0000
;
